Автомобильный видеорегистратор Cuagain C72. Или при чем тут Hyundai???

Опубликовал | 10.07.2018

Всем привет! сегодня рассмотрим на что способен видеорегистратор от Китайской компании Cuagain. Основной упор делается на возможности сенсора Sony IMX323. Снимает в 1920*1080. Заинтересовало, что коробка и прошивка идут с указанием на известный корейский бренд. Пойдемте, разберемся, что тут к чему?

Характеристики

Модель: CU72
Дисплей: 2.7-дюймовый tft
Sony imx323 сенсор
Видео:1080 P FHD 16:9
Оперативная память: 1 GB DDR3
Высокоточный G-датчик обнаружения столкновение
Функция: Камера/Видео/обнаружение движения / циклическая запись/предварительный просмотр / обнаружение столкновения/
Размер: 94*50*31 мм (Д * Ш * В)
Место установки: присоска на переднее лобовое стекло
Цвет: черный
Угол объектива: 170 градусов
Питание: 5 В 1A
Тип карты памяти: TF/microSD карта

Упаковка и комплектация

Поставляется регик в белой плотной коробке, на которой синим шрифтом написано Hyundai и еще какие-то йероглифы

Сзади коробки какие-то QR коды и характеристики на китайском. Еще написана модель HCR 3023

Открываем коробочку и нас сразу ждет видеорегистратор. Тут на самом деле есть был еще пакетик, но я его потерял.

Под картонной вставкой нас ждет целый сбор аксуссуаров

Весь комплект рассмотрим подробнее под спойлером

Дополнительная информация
Есть специальное зеркальце (2шт), которое держится на шарнире и клеится на 3М. Видимо для зеркал заднего вида, иначе я не знаю

В подарок положили дешевенькое зарядное на 3 порта 5V 5.1A

Зарядное от прикуривателя с длинным кабелем

На конце micro USB

Кронштейн/крепление с присоской

Регистратор держится уверенно

Внешний вид

Особых новшеств во внешнем виде нет.
Спереди линза, сзади дисплей

На объективе написаны характеристики

Слева от дисплея три кнопки: вкл/выкл, MODE(переключение режимов), MENU

Справа тоже три перемещение по пунктам меню вверх вниз и запись.

Сверху есть слот под карту памяти и кнопка перезагрузки (нажимается скрепкой)

Снизу вход для питания и паз для крепления

Дисплей весь закрыт пленкой. Снимать не планируем. Пусть будет

Присутствуют стандартные для региков 2 светодиода красный да синий

Интерфейс

Что порадовало, есть вполне себе достойный русский язык.
Выбор разрешений для съемки от 640х480 до 1920х1080.
В основном стандартные настройки регистраторов.
Картинки кликабельны, кому не видно в уменьшенном варианте.

Приложений или синхронизации по WiFI не имеет.

Примеры съемки

Осталось только посмотреть, как снимает этот регистратор. А это, в общем то, самое главное.
Снимать будем, разумеется в 1080.
Вот оригиналы видео загрузил на Гугл диск

Регистратор пишет видео в формате MOV
Вот инфо о файле

Дополнительная информация
General
Complete name: F:myskuDVR hunday6454564562018_0617_154024_006.MOV
Format: MPEG-4
Format profile: QuickTime
Codec ID: qt
File size: 177 MiB
Duration: 2mn 0s
Overall bit rate: 12.4 Mbps
Movie name/More: Max-Chip
Encoded date: UTC 2018-06-17 15:42:24
Tagged date: UTC 2018-06-17 15:42:24
Origin: Max-Chip

Video
ID: 1
Format: AVC
Format/Info: Advanced Video Codec
Format profile: High@L4.1
Format settings, CABAC: Yes
Format settings, ReFrames: 1 frame
Format settings, GOP: M=1, N=15
Codec ID: avc1
Codec ID/Info: Advanced Video Coding
Duration: 2mn 0s
Bit rate: 11.2 Mbps
Width: 1 920 pixels
Height: 1 080 pixels
Display aspect ratio: 16:9
Frame rate mode: Constant
Frame rate: 30.000 fps
Color space: YUV
Chroma subsampling: 4:2:0
Bit depth: 8 bits
Scan type: Progressive
Bits/(Pixel*Frame): 0.180
Stream size: 160 MiB (90%)
Language: English
Encoded date: UTC 2018-06-17 15:42:24
Tagged date: UTC 2018-06-17 15:42:24

Audio
ID: 2
Format: PCM
Format settings, Endianness: Little
Format settings, Sign: Signed
Codec ID: sowt
Duration: 2mn 0s
Bit rate mode: Constant
Bit rate: 512 Kbps
Channel(s): 1 channel
Sampling rate: 32.0 KHz
Bit depth: 16 bits
Stream size: 7.32 MiB (4%)
Language: English
Encoded date: UTC 2018-06-17 15:42:24
Tagged date: UTC 2018-06-17 15:42:24

Посмотрите примеры видео на ютьюб.

Но редактор ютьюба сильно мылит изображение, предлагаю скачать оригиналы.

Впечатление от видео неплохие. Качество хорошее, даже видно номера машин, Может быть не идеал, но нас вполне устроило. Особенно удивило, что он недурно пишет даже против солнца. Отдаю на ваш суд. На этом заканчиваю. Причем тут Huyndai, я сам не понял. Просто суровый китайский маркетинг. Пока пока!

Чтобы не доказывать никому ничего ставлю п.18.

Товар предоставлен для написания обзора магазином. Обзор опубликован в соответствии с п.18 Правил сайта.

Планирую купить 0 Добавить в избранное +4 +4

(c) 2017 Источник материала

Рекламные ссылки