Новый видеорегистратор Anytek A2

Опубликовал | 05.06.2015

  • Цена: $98 на момент заказа

Представляю вашему вниманию новый видеорегистратор от уже известного нам продавца Sandy Wang. Очередной раз порадую любителей расчленёнки.
Приступим.

Уже почти год пользовался Anytek AT66, но так случилось, что он понравился моему другу, который теперь использует его как экшн камеру на параплане.

Я связался с продавцом и получил предложение приобрести новинку от Anytek
Придушив земноводное решил купить.

Посылка была отправлена почтой Сингапура и получена через 12 дней (!)

Трек

Характеристики
Процессор Ambarella A7LA50
Матрица Omnivision OV4689
Угол обзора 170 градусов по диагонали
Рабочая температура — от -20 до +80
Поддерживаются карты памяти до 32GB
Циклическая запись 1/3/5 минут

Упаковка

Комплектация и внешний вид

После включения меня насторожило то, что регистратор не издаёт звуки, хотя в настройках звук нажатий кнопок включён.
При просмотре видео на ПК звук есть, при подключении по HDMI звук нажатий клавиш тоже есть.
Вспомнив опыт разборки AT66 начал вскрытие.
Отклеив экран, винтов не обнаружил.
Штирлиц насторожился…
Винты были найдены под накладкой в левой части со стороны кнопки включения.
Я думал, что всё делаю правильно, но как оказалось — сильно ошибся.
Если кому-то понадобится разобрать эту модель, например заменить аккумулятор, последовательность такая — отклеиваем накладку рядом с кнопкой включения и выкручивает два винта под ней,
после чего с помощью кредитки или пластиковой лопатки снимаем лицевую часть корпуса
со стороны объектива, после чего будут доступны 4 винта, которые соединяют плату,
раму и панель с кнопками.
Я же начал разъединять раму и ту часть, где экран и кнопки, оторвав при этом втулки, в которые вворачиваются те самые 4 винта.
Оторванный крепёж приклеил жидким пластиком Cosmofen, которым пользуются установщики пластиковых окон.

Разобрав регистратор я обнаружил, что динамик плохо припаян к плате. WTF?

Вскрытие

Работа в режиме фотоаппарата

Видео
Меню настроек

День, включена фунуция ADAS

Вечер ADAS OFF

Media info
General
Complete name: C:2015-06-04-21-11-32 3 min evening adas off.MP4
Format: MPEG-4
Format profile: JVT
Codec ID: avc1
File size: 340 MiB
Duration: 3mn 0s
Overall bit rate mode: Variable
Overall bit rate: 15.8 Mbps
Encoded date: UTC 2015-06-04 21:11:32
Tagged date: UTC 2015-06-04 21:11:32
AMBA:

Video
ID: 1
Format: AVC
Format/Info: Advanced Video Codec
Format profile: Main@L4
Format settings, CABAC: Yes
Format settings, ReFrames: 1 frame
Format settings, GOP: M=1, N=15
Codec ID: avc1
Codec ID/Info: Advanced Video Coding
Duration: 3mn 0s
Bit rate mode: Variable
Bit rate: 15.0 Mbps
Width: 1 920 pixels
Height: 1 080 pixels
Display aspect ratio: 16:9
Frame rate mode: Constant
Frame rate: 29.970 fps
Color space: YUV
Chroma subsampling: 4:2:0
Bit depth: 8 bits
Scan type: Progressive
Bits/(Pixel*Frame): 0.241
Stream size: 322 MiB (95%)
Title: Ambarella AVC
Language: English
Encoded date: UTC 2015-06-04 21:11:32
Tagged date: UTC 2015-06-04 21:11:32
Color range: Full

Audio
ID: 2
Format: AAC
Format/Info: Advanced Audio Codec
Format profile: LC
Codec ID: 40
Duration: 3mn 0s
Bit rate mode: Constant
Bit rate: 64.0 Kbps
Nominal bit rate: 128 Kbps
Channel(s): 1 channel
Channel positions: Front: C
Sampling rate: 48.0 KHz
Compression mode: Lossy
Stream size: 1.37 MiB (0%)
Title: Ambarella AAC
Language: English
Encoded date: UTC 2015-06-04 21:11:32
Tagged date: UTC 2015-06-04 21:11:32

Text
ID: 3
Format: Timed Text
Codec ID: text
Duration: 3mn 0s
Source duration: 3mn 0s
Bit rate mode: Variable
Bit rate: 599 bps
Stream size: 13.2 KiB (0%)
Source stream size: 13.2 KiB (0%)
Title: Ambarella EXT
Language: English
Encoded date: UTC 2015-06-04 21:11:32
Tagged date: UTC 2015-06-04 21:11:32

На корпусе регистратора есть разъём «GPS»
Оказалось, что GPS антенна подходит от AT66 из моего прошлого обзора

Я был в легком шоке, когда стал просматривать записанное видео.


Сначала думал, что это недоработка прошивки, но оказалось, что GPS трек записывается, как субтитры.
Просмотреть трек можно с помощью программы Datakam.

Datakam

Плата очень похожа на reference kit от Ambarella.

Мои впечатления.

Упаковка.
Дизайнеры упаковки хорошо потрудились. Коробка сделана как пенал — внутренняя часть вытягивается за тканевую петлю. Коробка была упакована в гофрированный картон, но сборная почты России по футболу всё равно смогла нанести незначительные повреждения.

Регистратор.
Когда берешь его в руки сразу чувствуется тяжесть.
Тяжесть — это хорошо. тяжесть — это надёжно, как говорил мой любимый персонаж из фильма «Snatch»
Средняя часть регистратора выполнена из металла.
Части корпуса хорошо подогнаны, есть еле заметный зазор есть только вокруг объектива.

Качество видео в светлое время суток как у других топовых регистраторов, по этому я сделал видео в вечернее время.

Не то, чтобы минусы, скорее недоработки.

Регистратор новый, есть много вопросов к производителю, которые я надеюсь, будут решены.
Я много общался с производителем по поводу AT66, мною была произведена корректировка локализации и сделана инструкция для русскоязычных пользователей.
На данный момент русский интерфейс сделан не очень хорошо, даже не совету его включать — английский понятнее.

Реализованы не все заявленные функции.

У производителя очень странная для меня позиция — мы сделаем всё, что вы хотите, исправим все ошибки, учтём все ваши пожелания, но для этого вы должны заказать партию не менее 200 штук.

Мне было непонятно то, что я предлагал свою помощь бесплатно, а вместо того, чтобы её принять, меня просят сначала купить большую партию товара.

Не смотря на небольшие недочёты продукт весьма достойный, любителям новинок рекомендую.

На этом пока всё, пинайте :)

(c) 2015 Источник материала.

Рекламные ссылки