Спорт камера EKEN H9R

Опубликовал | 02.09.2018

  • Цена: US$ 44.99

Добрый день, уважаемые читатели. Сегодня небольшой обзор бюджетной спортивной камеры. Только недавно я искал смысл в дешевых «экшен» камерах, и вот второй заход. Посмотрим на проверенный временем вариант EKEN H9.

Камера не новинка, делают ее давно. Есть несколько разных ревизий по железу и пару вариантов комплектации. В обзоре будет рассмотрена комплектация R — с беспроводным пультом управления.
Характеристики:
EKEN H9
Цвет: черный
CPU: Sunplus SPCA6350
RAM: 1Gb /DDRIII
Сенсор: OV4689-2A
Объектив: 170 градусов широкоугольный
Экран: 2" IPS
Водозащита: в аквабоксе до 30 м.
Разрешение видео: 4K25fps / 2.7K30fps / 1080p60fps / 1080p30fps / 720p120fps
Формат видео: H264 MOV
Разрешение фото: 12MP / 8MP /5MP / 4MP
Фото формат: JPEG
Wi-Fi соединение: 802.11 b/g/n
Карта памяти: Class10 TF card, 16GB-32GB
Порты: Micro USB / High Definition Multimedia
Аккумулятор: PG1050, 3.7V 1050mAh 3.885Wh rechargeable Li-ion battery pack (4K25 70mins / 2.7K30 50mins)
Языки меню: English / Traditional Chinese / Italian / Spanish / Portuguese / German / Dutch / French / Czech / Polish / Turkish / Russian / Japanese / Korean / Thai
Рабочее напряжение: 3.7 В, 580 mA
Рабочая температура: -5℃~70℃
Размеры: 59.3 * 24.6 * 41.1 мм
Масса: 66 г.
Сразу оговорюсь, 4К тут «не настоящее», а интерполяция.

Доставка ТК в руки.
Коробка по-современному с прозрачной верхней частью:

Комплект поставки щедрый:


Особенность поставки это — беспроводной пульт на руку. Креплений и колен достаточно, что бы закрепить камеру на руль велосипеда или в качестве видеорегистратора.

Скан инструкции

Сценарий применения креплений:

Я из них сколхозил крепление телевизора в авто:

Головки винтов крепления удобные, руку не режет.

Пульт ДУ:

Размеры: 47х43х12 мм. Для него предусмотрен нейлоновый ремешок на запястье. Стоит выдернуть язычок пластиковой заглушки батарейки и пульт начинает работать. С него можно сделать фото и выключить камеру (красная кнопка) и активировать запись видео.
Аквабокс:

Камера немного болтается в нем. Защелка оставит ваши ногти в целости, это радует.
Водный тест аквабокса:

Пройден успешно, бокс герметичен.

Внешний вид устройства:

Корпус монолитным не назовешь. Диаметр объектива 21 мм. Софттач только передняя панель корпуса. Сзади во всю грань 2» экран 320×240 ips с неплохими углами обзора.
С боков типовые порты MicroUSB и MicroHDMI и стандартная пара кнопок:

Аккумулятор модели:

Это тип PG1050, используется во многих камерах, купить еще один не проблема.
Аккумулятора хватает примерно на час записи в 1080p 30fps. Камера прилично греется при работе, снизу корпуса расположены отверстия для вентиляции.
Рамка для крепления в авто/штатив:

Этой рамкой компенсируется отсутствие на самой камере втулки с фоторезьбой.
Масса камеры:

Режимы и ПО
Следующий за видео — фото режим:

Burst фото:

камера делает 3 фото за 1,5 сек.
Режим тайм-лапс:

фото с интервалом 2,3,5,10,20,30 и 60 сек.
Режим просмотра отснятого материала:

Разрешение в настройках

1920×1080 60fps Это реальный работающий максимум по процу и сенсору.
Версия прошивки:

Есть так же режим web-камеры, нужные драйвера устанавливаются в windows автоматически.

Приложение на смартфон Ez iCam:

Работает по wifi и не поддерживает 4к. Соединилось сразу, глюков не замечено.

Можно сразу стриммить видео в фейсбук или ютуб. Но батарейки на долго не хватит.
Настройки:

Галерея отснятого:

можно копировать файлы на устройство.
Посмотрим теперь возможности камеры на практике.
Фото с камеры:




параметры фото
Камера
Make <Производитель камеры>
Model <Модель камеры>
Orientation <Ориентация изображения> верхняя-левая (1)
XResolution <Разрешение по Х координате> 72
YResolution <Разрешение по Y координате> 72
ResolutionUnit <Единица измерения> Дюйм
Software <Имя и версия программного продукта> VER:Dec 14 2017.14:03:24
Date modified <Дата и время изменения> 02.07.2017 — 0:04:12
YCbCrPositioning <Положение YCbCr> совместимое расположение (2)

Изображение
ExposureTime <Выдержка [сек]> 1/2000
FNumber <Число диафрагмы> 2.8
ExposureProgram <Программа экспозиции> Normal (2)
ISOSpeedRatings <Эквивалентная светочувствительности> 100
ExifVersion <Версия EXIF> 02.20
Date taken <Дата съемки> 02.07.2017 — 0:04:12
Date digitized <Дата оцифровки> 02.07.2017 — 0:04:12
ComponentsConfiguration <Формат кодирования данных> YCbCr
CompressedBitsPerPixel <Сжатие [бит/пиксел]> 0
ShutterSpeed <Величина выдержки [сек]> 1/1999
Aperture <Апертура> F2.8
ExposureBiasValue <Величина компенсации экспозиции> 0
MaxAperture <Максимальная апертура> F2.8
MeteringMode <Тип экспозамера> Многоточечный (4)
LightSource <Источник света> Не задано (0)
Flash <Вспышка> Без вспышки
FocalLength <Фокусное расстояние [мм]> 0
UserComment <Комментарий пользователя>

Ролики с камеры:

Не предусмотренно ни стабилизации, ни исправления рыбьего глаза. Звук пишет глухо.

параметры видео
General
Format: MPEG-4
Format profile: QuickTime
Codec ID: qt 0000.00 (qt )
File size: 229 MiB
Duration: 31 s 200 ms
Overall bit rate: 61.6 Mb/s
Encoded date: UTC 2018-09-01 13:52:13
Tagged date: UTC 2018-09-01 13:52:13
Writing library: icat

Video
ID: 1
Format: JPEG
Codec ID: jpeg
Duration: 31 s 200 ms
Bit rate: 60.2 Mb/s
Width: 3 840 pixels
Height: 2 160 pixels
Display aspect ratio: 16:9
Frame rate mode: Constant
Frame rate: 25.000 FPS
Color space: YUV
Chroma subsampling: 4:2:0
Bit depth: 8 bits
Scan type: Progressive
Compression mode: Lossy
Bits/(Pixel*Frame): 0.290
Stream size: 224 MiB (98%)
Language: English
Encoded date: UTC 2018-09-01 13:52:13
Tagged date: UTC 2018-09-01 13:52:13

Audio
ID: 2
Format: PCM
Format settings, Endianness: Little
Format settings, Sign: Signed
Codec ID: sowt
Duration: 31 s 100 ms
Bit rate mode: Constant
Bit rate: 1 411.2 kb/s
Channel(s): 2 channels
Channel positions: Front: L R
Sampling rate: 44.1 kHz
Bit depth: 16 bits
Stream size: 5.23 MiB (2%)
Language: English
Encoded date: UTC 2018-09-01 13:52:13
Tagged date: UTC 2018-09-01 13:52:13

Оригиналы
Обсуждение EKEN H9 Ultra HD 4K на 4pda

Камера снимает ровно на свои деньги. В плюсах: набор аксессуаров, поддержка производителя по прошивкам и большая тема на 4pda.
Главный минус — слабое качество для 2018 года. Хотя бы нет явных косяков, как в более дорогой Ausek AT-38.
Если бюджет ограничен (до 50 $) — стоит рассмотреть этот вариант.

Есть купон D5883 цена с ним US$ 44.99:

Спасибо за просмотр. Удачных покупок!

Товар предоставлен для написания обзора магазином. Обзор опубликован в соответствии с п.18 Правил сайта.

Планирую купить +1 Добавить в избранное +1 +1

(c) 2017 Источник материала

Рекламные ссылки