Tronsmart H3 — смотрим 4K видео на бюджетном чипе Allwinner H3

Опубликовал | 15.08.2015

Tronsmart H3 — компактный медиплеер для вашего телевизора, главными особенностями которого являются аппаратное декодирования видео 4K и кодека H.265. Чтобы зря не ломали скролл мыши, сразу выводы: если вам нужно устройство из разряда «включил — всё работает» — то Draco H3 не для вас, если вам интересно поковыряться в прошивках, поэкспериментировать с приложениями — прошу под кат.

Технические характеристики

CPU: Allwinner H3 Cortex-A7 1.2GHz, 4 ядра
GPU: Mali400 mp2@600MHz
RAM: DDR3 1GB
ROM: 8GB
Bluetooth 4.0
Wifi 802.11 b/g/n 2.4G; AP6210
720p, 1080p 4Kx2K HDMI вывод
Поддерживаемые форматы видео:
H.265:1080p@60fps,4K@30fps
H.264:1080p@60fps
MPEG1/2/4:1080p@60fps
Vp8:1080p@60fps
VC1:1080p@30fps
AVS jizhun:1080p@60fps
ОС: Android 4.4
Порты: 1x USB;1 x слот карт памяти;1 x Micro USB OTG ;1xHDMI вход;

Технические характеристики на первый взгляд не впечатляют. Всего 1GB оперативной памяти, GPU Mali 400MP2 и нет поддержки Wifi 802.11 ac. Tronsmart H3 не удивит вас своими тестами производительности или возможностью играть в любые игры. Всё заточено на воспроизведение видео.

Внешний вид и комплектация

Tronsmart H3 поставляет в небольшой коробке:

Сзади указаны краткие технические характеристики:

Внутри коробки на первом уровне находится сам донгл:

Аксессуары аккуратно разложены в 3 отдельные коробочки:

В стандартную комплектацию входят: HDMI-удлинитель, USB-кабель, блок питания на 2А

H3 довольно компактный:


На одной из сторон расположены: вход для подключения питания, слот для microSD карт памяти, кнопка Reset (также используется для входа в режим перепрошивки)

На торце находится 1 полноразмерный USB и один microUSB для подключения OTG-кабеля:

Подключается H3 посредством male HDMI, либо можно воспользоваться удлинителем, если расположение портов в вашем телевизоре не позволяет произвести прямое подключение:

Сразу же посмотрим что внутри:

Чип Allwinner H3 скрывается под небольшой пластиной радиатора:

Радиатор также накрывает и 2 чипа памяти Samsung

На мой взгляд всё сделано довольно аккуратно.

Операционная система и прошивка

В Tronsmart H3 предустановлена ОС Android 4.4

Оболочка стандартная, без каких-либо особых модификаций:


Присутствует возможность OTA-обновлений:

Последняя официальная прошивка на данный момент датируется маем месяцем. Интерфейс в этой прошивке залочен на разрешение 720p. По воздуху обновления также будут приходить только для 720p.
Но можно прошить ядро с поддержкой 1080p, все файлы находятся на официальной странице
В этой версии прошивки есть проблемы с притормаживании интерфейса как в 720p, так и в 1080p режиме.
Производитель посоветовал мне воспользоваться данной Beta прошивкой
В ней интерфейс работает плавнее, но есть и минус — ядро тоже залочено только под 720p
Следует отметить, что 720p разрешение установлено только в интерфейсе Android, при проигрывании видео разрешение будет то, что выставлено в настройках экрана.
Для проверки воспользуемся тестовым файлом с ixbt.
Для начала проиграем видео с помощью встроенного в телевизор плеера:

видна чёткая сетка пикселей.
Теперь в разрешении 720p на Draco H3:

на фото видны артефакты пережатия.
Разрешение 1080p на Draco H3:

Сетка видна, но также присутствуют некоторые артефакты. Природа данных артефактов не совсем понятна, возможно это программная проблема прошивки, либо же проблема совместимости с моим телевизором LG 47LN540V. Как оказалось, в моём плеере Tronsmart S89 присутствуют такие же артефакты в этом тесте.
В данной прошивке также присутствует баг — при перезагрузке разрешение иногда сбрасывается по умолчанию в 720p/50Hz.

Linux

На чипе Allwinner H3 построен также популярный девборд под названием OrangePi. Разработчики выпустили несколько дистрибутивов Linux — Debian, Ubuntu, Lubuntu. Установить Linux очень просто, для этого необходимо:
1. Скачать дистрибутив с сайта OrangePi и распаковать. Я использовал данную сборку с форума Ubuntu 15.04
2. Скачать утилиту SDFormatter и отформатировать свою SD карту установив в Option параметр «FORMAT SIZE ADJUSTMENT» в «ON»
3. Скачать утилиту Win32 Disk Imager и записать образ на SD карту.
Инструкцию по записи образа из Linux можно найти тут.
Вставляем карту памяти в Draco H3, включаем и довольно быстро происходит загрузка Linux. Вводим пароль «orangepi» и попадаем на рабочий стол:

На данный момент не работает Wifi, что вероятно связано с отсутствием необходимых драйверов. Сам интерфейс работает достаточно плавно. Видео файлы проигрываются рывками, что вероятно связано с отсутствием поддержки аппаратного декодирования.

Тестирование производительности

Allwinner H3 — это бюджетный чип ориентированный на устройства ценой в $35-40. Состоит он из 4х ядер Cortex-A7 с частотой 1.2ГГц, в качеству GPU используется Mali400 MP2.
Объём оперативной памяти в Tronsmart H3 составляет 1GB, постоянной — 8GB.
Результаты в Antutu довольно скромные — всего 13270 балов:

CPU-Z с общей информацией:


Протестируем скорость записи и чтения внутренней памяти с помощью A1SD Bench:

Немного огорчает скорость записи в 10Мб/сек, это, например, заметно при фоновой установке приложений через Google Play и одновременной работой с устройством.
В Vellamo результаты тестирования тоже очень скромные:


Wifi

Wifi работает только на 2.4ГГц и поддерживает стандарты b/g/n. Но вот к роутеру подсоединяется максимум на 65Mbps:

Игры

Allwinner H3 и всего 1ГБ оперативной памяти никак не предназначены для тяжелых игр.
Но в какой-нибудь Tower Defense и Angry Birds вполне можно погонять:

IPTV, Youtube

С IPTV всё просто — качаем LazyIPTV, забрасываем плейлист и всё работает

Ограничение разрешение в 720p в оболочке играет злую шутку с разработчиками в приложении Youtube:

Максимальное разрешение которое можно выбрать для ролика — 720p вне зависимости от выбранного разрешения экрана в настройках системы.

Видео

Тестирование проводилось на файлах из библиотеки samples.linaro.org, тестовые файлы с кодеком H.265 были взяты на различных торрент-трекерах.
Видео проигрывалось через предустановленный плеер Kodi

Кодек H.264 / MP4-контейнер (Big Buck Bunny): 480p/720p/1080p — OK
Кодек MPEG-2 / MPEG-контейнер: 480p/720p — OK, 1080p — картинка периодически рассыпается
Кодек MPEG4 / AVI контейнер: 480p/720p/1080p — OK
Кодек VC-1 (WMV): 480p/720p/1080p — OK
Sintel_1080p_H264_24fps.mkv — OK
Sintel_4k_H264_24fps.mkv — OK
big_buck_bunny_4k_H264_30fps.mp4 — OK
big_buck_bunny_4k_H264_60fps.mp4 — звук ОК, видео зависает после пары кадров

HD.Club TCL demo Black and white fashion 1080p — OK

MediaInfo
General
Complete name: C:torrentHD.Club TCL demoHD.Club TCL demo Black and white fashion 1080p.mp4
Format: MPEG-4
Format profile: Base Media / Version 2
Codec ID: mp42
File size: 443 MiB
Duration: 3mn 24s
Overall bit rate mode: Variable
Overall bit rate: 18.1 Mbps
Performer: www.hd.club.tw
Writing application: TMPGEnc Video Mastering Works 5 Version. 5.0.6.38

Video
ID: 2
Format: AVC
Format/Info: Advanced Video Codec
Format profile: High@L4
Format settings, CABAC: Yes
Format settings, ReFrames: 3 frames
Codec ID: avc1
Codec ID/Info: Advanced Video Coding
Duration: 3mn 24s
Bit rate mode: Constant
Bit rate: 17.9 Mbps
Nominal bit rate: 20.0 Mbps / 20.0 Mbps
Width: 1 920 pixels
Height: 1 080 pixels
Display aspect ratio: 16:9
Frame rate mode: Constant
Frame rate: 29.970 fps
Color space: YUV
Chroma subsampling: 4:2:0
Bit depth: 8 bits
Scan type: Progressive
Bits/(Pixel*Frame): 0.288
Stream size: 437 MiB (99%)
Writing library: x264 core 114
Encoding settings: cabac=1 / ref=3 / deblock=1:0:0 / analyse=0x3:0x113 / me=hex / subme=7 / psy=1 / psy_rd=1.00:0.00 / mixed_ref=1 / me_range=16 / chroma_me=1 / trellis=1 / 8x8dct=1 / cqm=2 / deadzone=21,11 / fast_pskip=1 / chroma_qp_offset=-2 / threads=12 / sliced_threads=0 / slices=1 / nr=0 / decimate=1 / interlaced=0 / constrained_intra=0 / bframes=2 / b_pyramid=0 / b_adapt=1 / b_bias=0 / direct=1 / weightb=1 / open_gop=0 / weightp=2 / keyint=250 / keyint_min=25 / scenecut=40 / intra_refresh=0 / rc_lookahead=40 / rc=cbr / mbtree=1 / bitrate=20000 / ratetol=1.0 / qcomp=0.60 / qpmin=3 / qpmax=69 / qpstep=4 / vbv_maxrate=20000 / vbv_bufsize=19988 / nal_hrd=cbr / ip_ratio=1.40 / aq=1:1.00
Color range: Limited
Color primaries: BT.709
Transfer characteristics: BT.709
Matrix coefficients: BT.709

Audio
ID: 1
Format: AAC
Format/Info: Advanced Audio Codec
Format profile: LC
Codec ID: 40
Duration: 3mn 24s
Bit rate mode: Variable
Bit rate: 224 Kbps
Maximum bit rate: 576 Kbps
Channel(s): 2 channels
Channel positions: Front: L R
Sampling rate: 48.0 KHz
Compression mode: Lossy
Stream size: 5.47 MiB (1%)

Приступим к тестированию 4K видео H.265:

00-Original-HD-Club-4K-Chimei-Inn-60MBit.mp4 — OK

MediaInfo
General
Complete name: C:torrentHD-Club 4K Chimei-Inn (2012) HEVC H.265 2160p0-Original-HD-Club-4K-Chimei-Inn-60MBit.mp4
Format: MPEG-4
Format profile: Base Media / Version 2
Codec ID: mp42
File size: 252 MiB
Duration: 42s 42ms
Overall bit rate mode: Variable
Overall bit rate: 50.4 Mbps
Encoded date: UTC 2011-12-11 19:33:31
Tagged date: UTC 2011-12-11 19:33:31
©TIM: 00:00:00:00
©TSC: 30000
©TSZ: 1001

Video
ID: 1
Format: AVC
Format/Info: Advanced Video Codec
Format profile: High@L5.1
Format settings, CABAC: Yes
Format settings, ReFrames: 3 frames
Codec ID: avc1
Codec ID/Info: Advanced Video Coding
Duration: 42s 42ms
Bit rate: 50.0 Mbps
Width: 3 840 pixels
Height: 2 160 pixels
Display aspect ratio: 16:9
Frame rate mode: Constant
Frame rate: 29.970 fps
Standard: NTSC
Color space: YUV
Chroma subsampling: 4:2:0
Bit depth: 8 bits
Scan type: Progressive
Bits/(Pixel*Frame): 0.201
Stream size: 251 MiB (99%)
Language: English
Encoded date: UTC 2011-12-11 19:33:31
Tagged date: UTC 2011-12-11 19:33:31
Color range: Limited
Color primaries: BT.709
Transfer characteristics: BT.709
Matrix coefficients: BT.709

Audio
ID: 2
Format: AAC
Format/Info: Advanced Audio Codec
Format profile: LC
Codec ID: 40
Duration: 42s 42ms
Source duration: 42s 91ms
Bit rate mode: Variable
Bit rate: 317 Kbps
Maximum bit rate: 368 Kbps
Channel(s): 2 channels
Channel positions: Front: L R
Sampling rate: 48.0 KHz
Compression mode: Lossy
Stream size: 1.59 MiB (1%)
Source stream size: 1.59 MiB (1%)
Language: English
Encoded date: UTC 2011-12-11 19:33:31
Tagged date: UTC 2011-12-11 19:33:31


4K HD.Club Changhong-Discover_the_true_Sichuan-HEVC.mp4 — OK

MediaInfo
General
Complete name: C:torrent4K HD.Club-HEVC4K HD.Club Changhong-Discover_the_true_Sichuan-HEVC.mp4
Format: MPEG-4
Format profile: Base Media / Version 2
Codec ID: mp42
File size: 1.65 GiB
Duration: 4mn 55s
Overall bit rate mode: Variable
Overall bit rate: 47.9 Mbps
Encoded date: UTC 2014-12-25 12:55:49
Tagged date: UTC 2014-12-25 12:55:49
Writing application: TMPGEnc Video Mastering Works 6 Trial with Movie Plug-in Version. 6.0.0.8
Copyright: www.HD.Club.tw

Video
ID: 2
Format: HEVC
Format/Info: High Efficiency Video Coding
Format profile: Main@L5@High
Codec ID: hvc1
Codec ID/Info: High Efficiency Video Coding
Duration: 4mn 55s
Bit rate: 47.4 Mbps
Width: 3 840 pixels
Height: 2 160 pixels
Display aspect ratio: 16:9
Frame rate mode: Constant
Frame rate: 29.970 fps
Standard: Component
Color space: YUV
Chroma subsampling: 4:2:0
Bit depth: 8 bits
Bits/(Pixel*Frame): 0.191
Stream size: 1.63 GiB (99%)
Writing library: x265 unknown:[Windows][MSVC 1700][64 bit]
Encoding settings: wpp / ctu=64 / tu-intra-depth=1 / tu-inter-depth=1 / me=1 / subme=2 / merange=57 / no-rect / no-amp / max-merge=2 / temporal-mvp / no-early-skip / no-fast-cbf / rdpenalty=0 / no-tskip / tskip-fast / no-strong-intra-smoothing / no-lossless / no-cu-lossless / no-constrained-intra / no-fast-intra / open-gop / interlace=0 / keyint=250 / min-keyint=25 / scenecut=40 / rc-lookahead=20 / bframes=3 / bframe-bias=0 / b-adapt=2 / ref=5 / weightp / no-weightb / aq-mode=2 / aq-strength=1.00 / cbqpoffs=0 / crqpoffs=0 / rd=3 / psy-rd=0.00 / psy-rdoq=0.00 / signhide / lft / sao / no-sao-non-deblock / no-b-pyramid / cutree / rc=abr / bitrate=50000 / ratetol=1.0 / qcomp=0.60 / qpmin=0 / qpmax=51 / qpstep=4 / vbv-maxrate=60000 / vbv-bufsize=60000 / ipratio=1.40 / pbratio=1.30
Encoded date: UTC 2014-12-25 12:55:49
Tagged date: UTC 2014-12-25 12:55:49
Color range: Limited
Color primaries: BT.709
Transfer characteristics: BT.709
Matrix coefficients: BT.709

Audio
ID: 1
Format: AAC
Format/Info: Advanced Audio Codec
Format profile: LC
Codec ID: 40
Duration: 4mn 55s
Bit rate mode: Variable
Bit rate: 445 Kbps
Maximum bit rate: 576 Kbps
Channel(s): 2 channels
Channel positions: Front: L R
Sampling rate: 48.0 KHz
Compression mode: Lossy
Stream size: 15.7 MiB (1%)
Encoded date: UTC 2014-12-25 12:55:49
Tagged date: UTC 2014-12-25 12:55:49


4K HD.Club TCL-super_car-Part-1-HEVC — OK

MediaInfo
General
Complete name: C:torrent4K HD.Club-HEVC4K HD.Club TCL-super_car-Part-1-HEVC.mp4
Format: MPEG-4
Format profile: Base Media / Version 2
Codec ID: mp42
File size: 918 MiB
Duration: 2mn 44s
Overall bit rate mode: Variable
Overall bit rate: 46.8 Mbps
Encoded date: UTC 2014-12-25 14:24:07
Tagged date: UTC 2014-12-25 14:24:07
Writing application: TMPGEnc Video Mastering Works 6 Trial with Movie Plug-in Version. 6.0.0.8
Copyright: www.HD.Club.tw

Video
ID: 2
Format: HEVC
Format/Info: High Efficiency Video Coding
Format profile: Main@L5.1@High
Codec ID: hvc1
Codec ID/Info: High Efficiency Video Coding
Duration: 2mn 44s
Bit rate: 46.4 Mbps
Width: 3 840 pixels
Height: 2 160 pixels
Display aspect ratio: 16:9
Frame rate mode: Constant
Frame rate: 29.970 fps
Standard: Component
Color space: YUV
Chroma subsampling: 4:2:0
Bit depth: 8 bits
Bits/(Pixel*Frame): 0.187
Stream size: 910 MiB (99%)
Writing library: x265 unknown:[Windows][MSVC 1700][64 bit]
Encoding settings: wpp / ctu=64 / tu-intra-depth=1 / tu-inter-depth=1 / me=1 / subme=2 / merange=57 / no-rect / no-amp / max-merge=2 / temporal-mvp / no-early-skip / no-fast-cbf / rdpenalty=0 / no-tskip / tskip-fast / no-strong-intra-smoothing / no-lossless / no-cu-lossless / no-constrained-intra / no-fast-intra / open-gop / interlace=0 / keyint=250 / min-keyint=25 / scenecut=40 / rc-lookahead=20 / bframes=3 / bframe-bias=0 / b-adapt=2 / ref=5 / weightp / no-weightb / aq-mode=2 / aq-strength=1.00 / cbqpoffs=0 / crqpoffs=0 / rd=3 / psy-rd=0.00 / psy-rdoq=0.00 / signhide / lft / sao / no-sao-non-deblock / no-b-pyramid / cutree / rc=abr / bitrate=50000 / ratetol=1.0 / qcomp=0.60 / qpmin=0 / qpmax=51 / qpstep=4 / vbv-maxrate=60000 / vbv-bufsize=60000 / ipratio=1.40 / pbratio=1.30
Encoded date: UTC 2014-12-25 14:24:07
Tagged date: UTC 2014-12-25 14:24:07
Color range: Limited
Color primaries: BT.709
Transfer characteristics: BT.709
Matrix coefficients: BT.709

Audio
ID: 1
Format: AAC
Format/Info: Advanced Audio Codec
Format profile: LC
Codec ID: 40
Duration: 2mn 44s
Bit rate mode: Variable
Bit rate: 445 Kbps
Maximum bit rate: 576 Kbps
Channel(s): 2 channels
Channel positions: Front: L R
Sampling rate: 48.0 KHz
Compression mode: Lossy
Stream size: 8.74 MiB (1%)
Encoded date: UTC 2014-12-25 14:24:07
Tagged date: UTC 2014-12-25 14:24:07


К моему удивлению Draco H3 продемонстрировал неплохую «всеядность» как FULL HD видео, так и тяжелого 4K.

Выводы

+ аппаратное декодирование видео 4K
+ аппаратное декодирование кодека H.265
+ можно легко запустить Linux
— медленная внутренняя память
— 1ГБ оперативной памяти
— медленный Wifi
— интерфейс Android по умолчанию залочен на 720p
— артефакты вывода изображения в FULL HD (проблема совместимости с телевизором?)
— баги и тормоза прошивки

В процессе тестирования устройств я обычно размышляю на кого ориентирован продукт. С Tronsmart Draco H3 сделать выводы было сложно. Как я уже говорил в начале — упор устройства делается на возможность аппаратного декодирования 4K видео. Но если у вас есть 4K телевизор то в 99% в нём уже есть встроенный плеер, которого с головой хватает для проигрывания видео. Или если он вас не устраивает, то вы можете себе позволить приобрести плеер именитого производителя. И даже если вам просто нравятся китайские устройства — я бы наверное остановился на каком-нибудь плеере с чипом Amlogic S812, хоть они и дороже и не в формате донгла.
Если вы просто хотите просматривать 720p или 1080p видео то лучше будет посмотреть в сторону чипов предыдущих поколений.

У кого обычно подгорает поставить минус после прочтения следующего абзаца — просьба сначала проверить куда ведёт ссылка на покупку. На этом всё, до новых встреч! :)

Товар предоставлен для написания обзора магазином. Обзор опубликован в соответствии с п.18 Правил сайта.

(c) 2015 Источник материала.

Рекламные ссылки