Видеорегистратор с большим экраном и камерой заднего вида

Опубликовал | 11.07.2017

  • Цена: US$ 48.79

Добрый день, уважаемые читатели. Сегодня опять обзор автомобильного видеорегистратора теперь с 4" экраном и выносной камерой заднего вида. Снимает видео в 1080P.

Доставка почтой Швеции, сроки обычные.
Устройство поставляется в такой небольшой коробке:

Как это частенько бывает, название бренда не указано.
Внутри все очень плотно уложено:

Характеристики на коробке:

Комплектация регистратора:

Ничего лишнего.
Характеристики:
LCD экран: 4.0"
Угол обзора камеры: 170 градусов
Датчик удара: встроенный, сохраняет видео с ударом в нестираемую папку с другим именем.
Языки меню: Русский, Japanese, French, Italian, German, Spanish, English, Chinese (Simplified), Chinese (Traditional), Korean, etc
Видео формат: AVI
Разрешение: максимально 1080P
Формат записи: M-JPEG
Запись по кольцу: есть
Автоматическое включение/выключение: есть
Детектор движения: есть
Встроенная память: 64 Мб
Формат фото: JPEG
Карта памяти: TF ( Максимум 32 Гб)
Встроенный микрофон: есть
Ночная подсветка: есть
Видео выход: AV-IN PAL/NTSC
Функции USB: USB-Disk, PC-Camera
Питание: 5 В 1 A
Аккумулятор: встроенный 300 мАч.

Внешний вид устройства:

Выглядит стильно: крупный объектив под фотоаппарат на тонком (12 мм) корпусе. Пластик спереди под кожу с алюминиевой вставкой.
Спереди так же расположены диоды ночной подсветки и кнопка сброса.
На правом торце расположены кнопки, включение/ выключение на «ОК». Карта памяти вставляется снизу.

Зарядное устройство довольно компактное, кабеля с избытком:

Разъем мини USB угловой.
Камера заднего вида 0,3 Мп:


Корпус герметичен.
Разъем для подключения к регистратору мини джек как в гарнитурах, так же имеется кабель для питания подсветки, который нужно подключить параллельно задним фонарям. У камеры стальной угловой кронштейн, в комплекте так же двухсторонний скотч и два самореза для установки камеры. Кабеля около 6 метров, для питания подсветки около 1,5 м.

Подсветка
Инструкция, краткая и на английском


Устанавливаем в авто:


Кронштейн хлипковат.
В работе:
Заставка при включении/выключении:

Так же играет коротенькая мелодия.

Экран в регистраторе действительно хорош, большой и достаточно четкий.
Режим с двумя камерами:

Фото режим:

Меню

Режим просмотра:

Только задняя камера:

Режимы отображения камер перебираются на кнопку «UP».
Я ожидал линейки помощи при парковке, но нет.
Ставить себе камеру я не стал, у меня уже имеется штатная. У кого нет, вполне можно поставить, столбик или кирпич точно не пропустите.

камера заднего вида штатная

Меню:

Там настраивается чувствительность датчика удара, детектора движения, время роликов записи, дата и пр.
Есть режим повышения резкости при съемки ночью.

Версия прошивки

Примеры фото:
День:

Ночь:

Ролики:

Карты 16 Гб хватило на 3 ч где то.
Ночь с режимом повышения резкости:

Звук

Видео пишет 1280х720 30 к/с.

Параметры видео файла
Format: AVI
Format/Info: Audio Video Interleave
File size: 357 MiB
Duration: 3 min 0 s
Overall bit rate: 16.6 Mb/s
Video
Format: JPEG
Codec ID: MJPG
Duration: 3 min 0 s
Bit rate: 16.6 Mb/s
Width: 1 680 pixels
Original width: 1 280 pixels
Height: 960 pixels
Original height: 720 pixels
Display aspect ratio: 16:9
Frame rate: 30.000 FPS
Color space: YUV
Chroma subsampling: 4:2:0
Bit depth: 8 bits
Compression mode: Lossy
Bits/(Pixel*Frame): 0.343
Stream size: 357 MiB
Audio
ID: 1
Format: PCM
Format settings, Endianness: Little
Format settings, Sign: Signed
Codec ID: 1
Duration: 3 min 0 s
Bit rate mode: Constant
Bit rate: 128 kb/s
Channel(s): 1 channel
Sampling rate: 8 000 Hz
Bit depth: 16 bits
Stream size: 2.75 MiB (1%)
Alignment: Aligned on interleaves
Interleave, duration: 512 ms (15.36 video frames)

Качество камеры заднего вида

Этот регистратор мне понравился больше — хорошее качество записи, много настроек, камера заднего вида.

Есть 12% скидка, купон: BgAuMotor

Спасибо за внимание! Удачных покупок!

Товар предоставлен для написания обзора магазином. Обзор опубликован в соответствии с п.18 Правил сайта.

(c) 2017 Источник материала

Рекламные ссылки