Видеорегистратор Zeepin A307.

Опубликовал | 22.11.2017

Здравствуйте, уважаемые читатели! Сегодня на обзоре будет видеорегистратор, на процессоре Novatek и сенсоре Sony IMX323, с WiFi и управлением через приложение Lercenker, датчиком движения и удара.

Характеристики

Угол обзора:150°
Производитель чипсета:Novatek
GPS-трекер: Нет
Особенности:Wi-Fi функция, Обнаружение движения, Циклическая запись,G-сенсор
Видео-Кодек:H.264
Аккумулятор: Встроенный
Количество линз:1
Датчик изображения:Sony IMX323
Соотношение сторон экрана:16:9
Разрешение камеры:1920×1080
Кадров в секунду:30
Диагональ экрана: 2.45 inch
Operating voltage:DC 5V, 1.5A
WDR::Wide dynamic range
Screen::2.45 inch IPS screen
Battery::280mAh Lithium-ion battery

Упаковка и комплектация

Поставляется видеорегистратор в простенькой плотной коробке

На боку коробки прописаны основные «плюшки» модели: Wifi, Приложение, Запись по кругу и датчик удара.

На наклейке прописана какая-то информация и цвет

Открываем коробочку

В комплектацию входит:
— 2 полоски скотча 3М
— Зарядное с длинным кабелем от прикуривателя
— Кабель Mini USB
— Кронштейн с присоской
— Инструкция на английском
— Сам видеорегистратор

Вот комплектность по отдельности и инструкция

Внешний Вид

Внешний вид регистратора заточен под скрытый вид установки, но это при креплении на скотч.

На «крыльях» расположены отверстия динамика

Вот вид на линзу

С боку есть вход miniUSB, кнопка Reset, и видеовыход.

Внимание! все мы привыкли к странным звучаниям китайских названий или обозначений, тут явный пример такого.
Надпись на наклейке. :)

С другой стороны расположились слот под microSD карту, светодиоды работы и кнопка вкл/выкл.

Вот вид на дисплей

При включении питания приветствие и сразу включается запись изображения с камеры.

Ширина регистратора 68.66 мм

Диаметр присоски 55 мм

При подаче питания загорается синий и красный светодиод

При записи синий светодиод моргает.

Интерфейс

Рассмотрим интерфейс. Функции стандартные для видеорегистратора. Из интересных разве что функции соединения по вайфай
Много однотипных фото, спрячу их под спойлер.

Дополнительная информация

Особо тут рассказывать нечего, тут все банально

Установка

Фото установки, заранее извиняюсь за качество фото с тапка

Эксплуатация.

Видеорегистратор снимает в разрешении до 1920х1080, 30 FPS. Файлы пишутся в разрешении Mov

Вот информация о файле
General
Complete name: F:Reviews2017_1121_130358_010.MOV
Format: MPEG-4
Format profile: QuickTime
Codec ID: qt
File size: 274 MiB
Duration: 2mn 56s
Overall bit rate: 13.1 Mbps
Movie name/More: CarDV-TURNKEY
Encoded date: UTC 2017-11-21 13:06:58
Tagged date: UTC 2017-11-21 13:06:58
Origin: NVT-IM

Video
ID: 1
Format: AVC
Format/Info: Advanced Video Codec
Format profile: High@L4.1
Format settings, CABAC: Yes
Format settings, ReFrames: 1 frame
Format settings, GOP: M=1, N=15
Codec ID: avc1
Codec ID/Info: Advanced Video Coding
Duration: 2mn 56s
Bit rate: 11.9 Mbps
Width: 1 920 pixels
Height: 1 080 pixels
Display aspect ratio: 16:9
Frame rate mode: Constant
Frame rate: 30.000 fps
Color space: YUV
Chroma subsampling: 4:2:0
Bit depth: 8 bits
Scan type: Progressive
Bits/(Pixel*Frame): 0.191
Stream size: 249 MiB (91%)
Language: English
Encoded date: UTC 2017-11-21 13:06:58
Tagged date: UTC 2017-11-21 13:06:58

Audio
ID: 2
Format: PCM
Format settings, Endianness: Little
Format settings, Sign: Signed
Codec ID: sowt
Duration: 2mn 56s
Bit rate mode: Constant
Bit rate: 512 Kbps
Channel(s): 1 channel
Sampling rate: 32.0 KHz
Bit depth: 16 bits
Stream size: 10.7 MiB (4%)
Language: English
Encoded date: UTC 2017-11-21 13:06:58
Tagged date: UTC 2017-11-21 13:06:58

Далее нам советуют воспользоваться приложением.

ПО

Приложение позволяет не таская видеорегистратор скачать нужный нам файл на телефон и сразу его выложить ну или делать, что заблагорассудиться. Можно настроить регистратор с телефона, поменять настройки сделать фото, просмотреть материал.
Так же много скриншотов спрячу под спойлер.

Дополнительная информация

Видео

Оригиналы видео можно скачать на Гугл диске

Видеообзор

Посмотреть примеры прямо тут можно ниже
Пример 1

Пример 2

Пример 3

Вывод

Неплохой видеорегистратор, хороший функционал. Хорошее качество сборки, Хотя в этом веке качество видео могло бы быть и лучше. Датчик удара срабатывает четко, настраивается чувствительность. К датчику движения тоже претензий нет. Полностью заряженного аккумулятора хватает от получаса до часа съёмок.

Из плюсов:

WiFi нет необходимости носить карту домой, чтобы что-то скинуть.
Датчик удара
Датчик движения

Из минусов:

Отсутствие «ночной» подсветки

Спасибо за внимание. Пока пока

Товар предоставлен для написания обзора магазином. Обзор опубликован в соответствии с п.18 Правил сайта.

Планирую купить +2 Добавить в избранное +8 +10

(c) 2017 Источник материала

Рекламные ссылки