Купольная камера Reolink RLC-420 на 5MP.

Всем здравствуйте. Сегодня на обзоре уличная ip камера Reolink RLC-420.

Я уже делал пару обзоров камер от этого производителя, тут и тут, но понадобилось поставить камеру ребенку в гимназию, поэтому попросил у производителя купольный вариант камеры. За исключением формфактора, она почти ничем не отличается от RLC410.
Посмотрим на технические характеристики устройства.

Аппаратные возможности
Сенсор — 1/2.7" CMOS Sensor
Разрешение — Mainstream: 2560×1920; Substream: 640×480
Объектив — f=4.0 mm Fixed, F=2.0, with IR-Cut
Углы обзора — Horizontal: 85°Vertical: 58°
Минимальная освещенность — 0 Lux (with IR Illuminator)
Дистанция подсветки — до 30 м
Система шумоподавления — 3D DNR
Питание — DC12V & PoE (IEEE 802.3af 48V Active) <10W
Разъемы — 10M/100Mbps RJ45
Встроенный микрофон
Поддержка компенсации обратной засветки
Поддержка карт памяти до 64Gb.

Программное обеспечение
Protocols & Standards HTTPS, SSL, TCP/IP, UDP, UPNP, RTSP, SMTP, NTP, DHCP, DNS, DDNS, FTP, ONVIF, P2P
Image Compression H.264
Maximal Frame Rate PAL: 25fps, NTSC: 30fps
Code rate 1024Kbps ~ 8192Kbps
Maximal User Access 20 Users
Browser Supported IE, Edge, Chrome, Firefox, Safari
OS Supported PC: Windows; Mac OS; Smart Phone: iOS, Android
Record Mode Motion Record/Schedule Record (default: Motion Record)

Дополнительные параметры
Рабочие температуры: -10℃~+55℃, IP66
Размеры 120х77mm
Вес 480g

Приехал камера в обычной коробке из переработанного картона с логотипом Reolink, на одной стороне наклейка с технической информацией об устройстве.

Вскрыв коробку сразу видим пакетик с макулатурой, для тех кто никогда не пользовался камерами Reolink, мануал будет полезен. Также пригодится шаблон для сверления отверстий, очень удобная штука. Под этим в сем в углублении находится метровый пачкорд и небольшая отвертка.

Достав защитную вставку из вспененного полиэтилена, мы видим камеру и дополнительные аксессуары. Полный комплект выглядит так:

• Камера Reolink RLC-420
• Пачкорд rg-45 для настройки камеры
• Шурупы для крепления к стене
• Отвертка
• Инструкция к камере и брошюра о компании
• Гермоввод

Перейдем к камере. Корпус камеры выполнен из металла, как и основание в котором она крутится. В передней части основания расположен логотип компании и пластиковый язычек на болте, который служит для фиксации двух половин основания.


На задней части есть QR код для подключения камеры, хотя мой телефон нашей ее и без этого, а также логин и пароль по умолчанию. В корпусе самой камеры на фото видно слот под MicroSD карту на болтах и отверстие микрофона.

А вот как камера выглядит снизу, из нее выходит кабель с тремя поводками. На одном разъем для подключения информационного кабеля, кнопка сброса настроек и разъем для подключения питания 12В, если у вас нет PoE оборудования.


В 5мп моделях для подсветки стали применять уже новые светодиоды, их стало меньше, соответственно уменьшился нагрев и, как говорят, вырос срок жизни.

Ну и конечно, традиционная разборка устройства, благо здесь это не особо сложно. Для этого откручиваем винт на пластиковой защелке и разбираем две половинки корпуса, достаем нашу камеру из ракушки.

Дальнейшие фото разборки спрячу под кат.

Фото разборки








Внутри все собрано как этажерка на стоечках, пайка нормальная, микрофон залит термоклеем для препятствия попадания влаги вовнутрь. Также внутри камеры обнаружился пакетик с поглотителем влаги. На горячих деталях имеются термопрокладки, а корпус камеры служит радиатором. В данной камере, в отличие от 410 модели, используется уже процессор от Novatek, модель NT98515MBG. Для сохранения настроек на плате есть батарейка.

Камера умеет работать через браузер, через декстопное приложение, через мобильное приложение, а также через любое стороннее приложение которое поддерживает подключение оп Onvif протоколу. Часть информации я скопирую из своего предыдущего обзора, так как она полностью повторяется, я имею ввиду описание работы приложений.

Десктопное приложение
На основном экране можно выбрать поток для просмотра, его битрейт, поиграться с картинкой (яркость, контрастность и прочее), настроить OSD, включать и выключать компенсацию обратной засветки, функция контроля динамического диапазона.

В меню камеры больше настроек, но чаcть из них дублируются с основными. Здесь можно настроить сетевой адрес камеры, DNS, настроить DDNS, указать вручную порты для всех поддерживаемых протоколов, настроить отправку сообщений на почту или ftp-сервер.



Мобильное приложение



И буквально пару скринов с браузера.

Дополнительная информация



Камера, как и предыдущая, установлена на высоте 6 этажа, единственно, из-за разницы в конструкции не удалось настроить ее на тот же угол, но обзор явно получился больше у этой камеры. С установкой проблем нет, прикручивается основание, потом туда вставляем камеру и вторую часть основы и закручиваем один винт.

Ниже пример съемки камеры в разных условиях, днем, вечером и ночью. Как и предыдущая камера, эта умеет отдавать поток в различном качестве. Если хорошая связь, то можно смотреть в 5МП и тогда днем поток подлетает до 10Mbits, есть средний режим и режим с низким битрейтом, хорошо подходит для мобильного с плохой связью, картинка будет конечно не супер, но зато все увидите.

информация о ночной съемке
General
Complete name: F:Obzorireolink rlc420androidrecord3242019camera-184558-184658.mp4
Format: MPEG-4
Format profile: Base Media / Version 2
Codec ID: mp42 (mp41/iso2/avc1/dash)
File size: 24.2 MiB
Duration: 1 min 0 s
Overall bit rate: 3 335 kb/s
Encoded date: UTC 2019-03-24 16:46:58
Tagged date: UTC 2019-03-24 16:46:58

Video
ID: 1
Format: AVC
Format/Info: Advanced Video Codec
Format profile: High@L5.1
Format settings, CABAC: Yes
Format settings, RefFrames: 1 frame
Format settings, GOP: M=1, N=24
Codec ID: avc1
Codec ID/Info: Advanced Video Coding
Duration: 1 min 0 s
Source duration: 1 min 0 s
Bit rate: 3 023 kb/s
Width: 2 560 pixels
Height: 1 920 pixels
Display aspect ratio: 4:3
Frame rate mode: Variable
Frame rate: 12.035 FPS
Minimum frame rate: 11.905 FPS
Maximum frame rate: 40.000 FPS
Color space: YUV
Chroma subsampling: 4:2:0
Bit depth: 8 bits
Scan type: Progressive
Bits/(Pixel*Frame): 0.051
Stream size: 21.9 MiB (91%)
Source stream size: 21.9 MiB (91%)
Language: English
mdhd_Duration: 60799

Audio
ID: 2
Format: AAC
Format/Info: Advanced Audio Codec
Format profile: LC
Codec ID: 40
Duration: 1 min 0 s
Source duration: 1 min 0 s
Bit rate mode: Constant
Bit rate: 64.0 kb/s
Nominal bit rate: 127 kb/s
Channel(s): 1 channel
Channel positions: Front: C
Sampling rate: 16.0 kHz
Frame rate: 15.625 FPS (1024 SPF)
Compression mode: Lossy
Stream size: 475 KiB (2%)
Source stream size: 476 KiB (2%)
Language: English
mdhd_Duration: 60799

информация о дневной съемке
General
Complete name: F:Obzorireolink rlc420androidrecord3242019camera-171426-171452.mp4
Format: MPEG-4
Format profile: Base Media / Version 2
Codec ID: mp42 (mp41/iso2/avc1/dash)
File size: 15.3 MiB
Duration: 17 s 930 ms
Overall bit rate: 7 162 kb/s
Encoded date: UTC 2019-03-24 15:14:52
Tagged date: UTC 2019-03-24 15:14:52

Video
ID: 1
Format: AVC
Format/Info: Advanced Video Codec
Format profile: High@L5.1
Format settings, CABAC: Yes
Format settings, RefFrames: 1 frame
Codec ID: avc1
Codec ID/Info: Advanced Video Coding
Duration: 17 s 930 ms
Source duration: 17 s 955 ms
Bit rate: 6 266 kb/s
Width: 2 560 pixels
Height: 1 920 pixels
Display aspect ratio: 4:3
Frame rate mode: Variable
Frame rate: 25.063 FPS
Minimum frame rate: 25.000 FPS
Maximum frame rate: 40.000 FPS
Color space: YUV
Chroma subsampling: 4:2:0
Bit depth: 8 bits
Scan type: Progressive
Bits/(Pixel*Frame): 0.051
Stream size: 13.4 MiB (87%)
Source stream size: 13.4 MiB (87%)
Language: English
mdhd_Duration: 17930

Audio
ID: 2
Format: AAC
Format/Info: Advanced Audio Codec
Format profile: LC
Codec ID: 40
Duration: 17 s 930 ms
Source duration: 17 s 984 ms
Bit rate mode: Constant
Bit rate: 64.0 kb/s
Nominal bit rate: 127 kb/s
Channel(s): 1 channel
Channel positions: Front: C
Sampling rate: 16.0 kHz
Frame rate: 15.625 FPS (1024 SPF)
Compression mode: Lossy
Stream size: 140 KiB (1%)
Source stream size: 141 KiB (1%)
Language: English
mdhd_Duration: 17930

На максимальном качестве картинка очень детализирована, плюс присутствует в камере цифровой зум, можно во время просмотра приблизить объект. Вечерняя и ночная съемка тоже не подкачали, хотя с таким объективом надо конечно ставить пониже камеру если хотите видеть максимум деталей, все-таки такой широкоугольный объектив раскроет свои возможности при установке на потолок в помещении.

Ниже скрин с мобильного приложения с функцией кропа. До людей на фото метров где-то 60-70.

А это кроп фото машин под окном.


Плюсом камеры могу назвать микрофон, он имеет хорошую чувствительность, хотя в ветреную погоду все же захлебывается, но это проблема всех наружных камер. Камера имеет низкий порог вхождения, большинство настроек делает сама, зачастую пользователю надо только установить приложение и подключить к камере сеть и питание. Наличие слота под карту памяти, позволяет использовать камеру без регистратора и компьютера, с одним лишь мобильным телефоном. При этом в самой камере можно настроить отправку алертов на почту или ftp сервер. Что мне не понравилось в камере, так это ее регулировка, камера в ложе крутится с заметным усилием и рывками, иногда сложно выставить нужный угол когда она уже закручена. Либо делать настройку, а потом закручивать. Учитывая среднюю цену на камеру в 50$, я могу ее смело рекомендовать к покупке, особенно если нужен именно такой вариант исполнения. К сожалению, в этот раз у меня нет под рукой никакого видеорегистратора, но с предыдущей камерой проблем не было, надеюсь и с этой не будет. На этом все, задавайте вопросы, попробую на них ответить.

Товар предоставлен для написания обзора магазином. Обзор опубликован в соответствии с п.18 Правил сайта.

Планирую купить 0 Добавить в избранное 0

(c) 2017 Источник материала

Пролистать наверх