Видеорегистратор MINI 0805P с GPS

Всем привет!
Сегодня расскажу про видеорегистратор MINI 0805P 1296P. Покупал его коллеге по работе и поездил с ним неделю, протестировал и теперь можно посмотреть на его особенности.
Это обновленная версия — теперь вместо аккумулятора стоит суперконденсатор, Работает на паре: датчик изображения OV4689 и процессор MSC8328P.

Человек за эти же деньги взял регик оффлайн и разочаровался. Решили взять китайский (может быть, нужно было взять бренд на букву X, но выбрали этот). Требовался небольшой размер и читаемость номеров на видео.
Это регистратор далеко не новинка, но судя по обзорам, дает хорошее качество картинки.

Доставка ТК.
Коробка:

Характеристики:
GPS: есть (опция)
Камера заднего вида: возможно подключение
Угол обзора: 130 градусов
Разрешение:2 304×1296/1920×1080/1280×720
Сенсор: 0V4689
Камера: 4 Мп CMOS
Экран:1.5” LCD
Видео кодек: H.264
Память: TF карта до 64 Гб
Датчик удара: есть
HDR/WDR:есть
Кабель питания: 3 м
Аккумулятор: нет, ионистор
Размеры: 7.5 * 4 * 4 см
Открываем:

Регистратор надежно защищен вспененным материалом.
Комплектация устройства:

Комплект поставки включает в себя:
1* Регистратор
1* блок питания
1* кабель микро usb
1* кронштейн
1* ткань для очистки линзы
2* 3M двухсторонний скотч
6* кабельные площадки
1* Инструкция
Блок питания 5 В 1,5 А:

Кабель 4 м длиной, с фильтром ЭМП на конце.

GPS модуль:

Через него регистратор крепится на ветровое стекло и там же гнездо micro usb для питания.
Размеры: 35х30х17 мм.
Внутри антенна:

Регистратор выглядит как цилиндр с лысками:

Размеры: диаметр 40 мм, длина 74 мм. Кронштейн поворотный.
Экран 1,5” фактического размера 33х24 мм:

Кнопок управления всего три, есть светодиод — индикатор состояния.
Кнопка включения с торца:

Снизу — слот под карту памяти и мини HDMI для выхода на телевизор:

Сверху — микро usb для подключения к компьютеру, AV вход для камеры заднего вида и микрофон:

Подключение к компу:

Все как обычно — работает как кардридер, но еще добавляется дополнительные папки с GPS логами и программой для работы с видео с GPS.

Попытка разборки
Разбирается через торец, где кнопка включения:

Поворотный кронштейн:

Не раскрывается, а ломать чужую вещь я не стал:

Установка в авто:

Снаружи:

Рабочий экран устройства при записи:

Экран конечно микроскопический — в угоду компактным размерам.
GPS схватывается за 15-30 сек.

Меню регистратора
Меню большое, настраивается много параметров:








Версия прошивки:

Есть нормальный русский в меню:

Автовыключение от датчика температуры настраиваемое до +85 С — оно в меню неспроста, регистратор неистово греется.

Особенность регистратора — системы помощи водителю: LDWS, FCWS и SAGS.
LDWS — контроль за линиями разметки и полосой.
FCWS — система предупреждения о столкновении (тут с индикацией расстояния до впереди идущей машины)
SAGS — предупреждение о начале движения впереди идущей машины.
Если включить все сразу — регистратор больше будет отвлекать своим писком, чем помогать. Ну какой зимой контроль разметки, да и вообще какая у нас разметка))) У себя на филлипсе я этих помощников отключил.
Предупреждение о трогании со светофора порой помогает.

Перейдем к возможностям регистратора.
Фото с устройства (размеры 2-14М):



Полоски это не дефект, а особенность моего ветрового стекла, оно с подогревом.
Ночь:

Файлы из папки GPS выглядят так:

Программа для GPS Single Camera GV Player
Ссылка для скачивания

У меня на компьютере не заработал Google maps — какой ключ просил.
Настройка карт:

Можно сохранить фото из видео ролика:

Попробовал еще registratorviewer:

Дальше не копал, времени не хватило.
В целом GPS лог полезная вещь — все ходы записаны.

Видео пишется с такими параметрами:
2304×1296 30 к/с
1920×1080 30 к/с HDR
1920×1080 30 к/с
1280×720 60 к/с
1280×720 30 к/с
Ролики длительностью 1, 3 и 5 минут.
ISO 100-3200 или автоматически и экспокоррекция +-2.
Настраивается контрастность, резкость и есть шумодав.

Условия записи самые суровые — хмуро, пасмурно и темнеет.

трасса в HDR

параметры
Format: MPEG-4
Format profile: QuickTime
Codec ID: qt 0000.02 (qt )
File size: 116 MiB
Duration: 1 min 0 s
Overall bit rate: 16.2 Mb/s

Video
ID: 1
Format: AVC
Format/Info: Advanced Video Codec
Format profile: Baseline@L4
Format settings: 1 Ref Frames
Format settings, CABAC: No
Format settings, ReFrames: 1 frame
Format settings, GOP: M=1, N=15
Codec ID: avc1
Codec ID/Info: Advanced Video Coding
Duration: 1 min 0 s
Bit rate: 16.0 Mb/s
Width: 1 920 pixels
Height: 1 080 pixels
Display aspect ratio: 16:9
Frame rate mode: Constant
Frame rate: 29.970 (30000/1001) FPS
Color space: YUV
Chroma subsampling: 4:2:0
Bit depth: 8 bits
Scan type: Progressive
Bits/(Pixel*Frame): 0.257
Stream size: 114 MiB (98%)
Language: English
Codec configuration box: avcC

Audio
ID: 2
Format: ADPCM
Codec ID: 11
Codec ID/Hint: Intel
Duration: 1 min 0 s
Source duration: 1 min 0 s
Bit rate mode: Constant
Bit rate: 256 kb/s
Nominal bit rate: 272 kb/s
Channel(s): 2 channels
Channel layout: L R
Sampling rate: 32.0 kHz
Stream size: 1.83 MiB (2%)
Source stream size: 1.95 MiB (2%)

В дождь:

оригиналы на ЯД 1 и 2
Так пишет звук

Все показал как есть, советовать что-то не буду, выбор за Вами.

Спасибо за просмотр. Удачных покупок!

Товар предоставлен для написания обзора магазином. Обзор опубликован в соответствии с п.18 Правил сайта.

Планирую купить +3 Добавить в избранное +13 +13

(c) 2017 Источник материала

Пролистать наверх